cite-orientee
» » Kenny Loggins - It's About Time

Kenny Loggins - It's About Time MP3 FLAC

Kenny Loggins - It's About Time MP3 FLAC
Performer:
Kenny Loggins
Album:
It's About Time
Released:
2003
Country:
US
Label:
All The Best! Records
Catalog:
0001-2
FLAC size:
1068 mb
MP3 size:
2114 mb
WMA size:
2945 mb


Tracklist


1Brothers5:55
2No Other Voice2:29
3The One That Got Away5:26
4This Is How My Song Goes4:07
5Alive 'N Kickin'5:01
6Doin' It Right3:48
7The Undeniable Groove4:55
8With This Ring4:16
9It's About Time4:25
10I Miss Us4:04


Credits


  • ProducerKenny Loggins, Richard Marx (tracks: 4), Tommy Sims (tracks: 1 to 3, 5 to 10)
  • Recorded By, Mixed ByTony Shepperd


Barcodes


  • Barcode: 829431000126
  • Matrix / Runout: WEA Mfg. Olyphant Z18076 4 ATB2 10001P-2 01 M1S1
  • Mastering SID Code: ifpi L909
  • Mould SID Code: IFPI 2U7G


Companies


  • Phonographic Copyright (p) – Kenny Loggins
  • Copyright (c) – Kenny Loggins
  • Licensed To – All The Best! Records
  • Manufactured By – All The Best! Records
  • Distributed By – All The Best! Records
  • Glass Mastered At – WEA Mfg. Olyphant – Z18076
  • Pressed By – WEA Mfg. Olyphant

  • Taulkree
foobar2000 1.4.4 / Dynamic Range Meter 1.1.1
log date: 2019-07-15 22:29:38

--------------------------------------------------------------------------------
Analyzed: Kenny Loggins / It's About Time
--------------------------------------------------------------------------------

DR Peak RMS Duration Track
--------------------------------------------------------------------------------
DR6 -0.10 dB -8.55 dB 4:24 01-It's About Time
DR8 -0.20 dB -9.39 dB 4:16 02-With This Ring
DR6 -0.10 dB -7.88 dB 5:02 03-Alive N' Kickin'
DR7 -0.10 dB -9.73 dB 4:03 04-I Miss Us
DR8 -0.10 dB -12.08 dB 5:24 05-The One That Got Away
DR8 -0.10 dB -10.45 dB 5:53 06-Brothers
DR7 -0.10 dB -9.76 dB 4:08 07-This Is How My Song Goes
DR7 -0.10 dB -9.31 dB 3:46 08-Doin' It Right
DR7 -0.10 dB -9.49 dB 4:55 09-The Undeniable Groove
DR12 -0.10 dB -16.04 dB 2:28 10-No Other Voice
--------------------------------------------------------------------------------

Number of tracks: 10
Official DR value: DR8

Samplerate: 44100 Hz
Channels: 2
Bits per sample: 16
Bitrate: 827 kbps
Codec: ALAC
================================================================================